COMPLETE AND TOTAL RANDOMNESS!

Your browser does not support HTML5 canvases.

Tog mig ungefär en halvtimme att dränka en kommun med en skateboard!





Vell, vat do joo expect fron a mad scientist leik myself?









Format: MPEG-PS
Date Recorded: 2012/09/20 - 00:15

Video

ID: 224 (0xE0)
Format: MPEG Video
Format version: Version 2
Format profile: Main@Main
Format settings, BVOP: Yes
Format settings, Matrix: Default
Format settings, GOP: N=15
Duration: 5s 680ms
Bit rate mode: Variable
Bit rate: 2 076 Kbps
Maximum bit rate: 9 800 Kbps
Width: 720 pixels
Height: 576 pixels
Display aspect ratio: 16:9
Frame rate: 25.000 fps
Standard: PAL
Color space: YUV
Chroma subsampling: 4:2:0
Bit depth: 8 bits
Scan type: Progressive
Compression mode: Lossy
Bits/(Pixel*Frame): 0.200
Time code of first frame: 00:00:00:00
Time code source: Group of pictures header
GOP, Open/Closed: Open
GOP, Open/Closed of first frame: Closed
Stream size: 1.41 MiB (87%)

Audio

ID: 192 (0xC0)
Format: MPEG Audio
Format version: Version 1
Format profile: Layer 2
Duration: 5s 664ms
Bit rate mode: Constant
Bit rate: 256 Kbps
Channel(s): 2 channels
Sampling rate: 48.0 KHz
Compression mode: Lossy
Stream size: 177 KiB (11%)

none

Hi!
Lets be completely random.
Took me half an hour to drown
a municipality with a skateboard.
Hej!
Låt oss vara helt slumpmessiga.
Tog mig en halvtimme att dränka
en kommun med en skateboard.
V' FA?